#TITLE:Flower Dance;
#SUBTITLE:SDO china lv21 - [N]hok[Q] Simfile;
#ARTIST:Dj Okawar;
#TITLETRANSLIT:;
#SUBTITLETRANSLIT:;
#ARTISTTRANSLIT:;
#CREDIT:[N]hok[Q];
#BANNER:bn.png;
#BACKGROUND:bg.png;
#LYRICSPATH:;
#CDTITLE:cd.png;
#MUSIC:sdom2126.ogg;
#OFFSET:-0.613;
#SAMPLESTART:60.613;
#SAMPLELENGTH:12.000;
#SELECTABLE:YES;
#BPMS:0.000=100.000;
#STOPS:;
#BGCHANGES:;
// cache tags:
#FIRSTBEAT:3.000;
#LASTBEAT:208.500;
#SONGFILENAME:Songs/SDO pack 3/Flower Dance/Flower Dance.sm;
#HASMUSIC:1;
#HASBANNER:1;
#MUSICLENGTH:127.200;
// end cache tags

//---------------dance-single - ----------------
#NOTES:
     dance-single:
     :
     Hard:
     21:
     1.000,0.943,1.000,0.668,0.845,616.000,208.000,85.000,0.000,68.000:
0000
0000
0000
0000
0000
0000
2100
0001
,
0000
0001
0010
0100
0011
0000
0010
0000
0101
0000
0000
0000
0011
0000
0001
0010
,
0101
0000
0001
0100
0101
0000
0010
0000
3101
0000
0001
0000
1001
0000
0010
0000
,
1100
0000
0000
0010
0000
0000
1001
0000
0000
1000
0100
1000
0101
0000
0000
0100
0000
0000
1010
0000
0000
0001
0000
0000
,
0010
0100
1000
0010
0001
1000
0110
0010
,
0000
1000
0100
0010
0101
0000
0001
0000
1100
0000
1000
0000
0101
0000
0001
0000
,
1100
0000
0010
0000
1001
0100
0010
0100
0010
1000
0010
0001
1100
0001
1010
0001
,
0110
1000
0100
1000
0011
0010
1100
0010
1100
0001
0010
0001
1100
0010
0101
0010
,
1102
0010
1100
0010
1100
0010
1000
0010
1000
0000
1000
0003
1210
0000
1000
0000
,
0011
0000
1000
0300
2010
0000
0100
0000
0011
0000
0100
3010
1102
0010
1000
0100
,
1010
0000
1000
0003
1100
0000
0011
0000
2001
0000
0010
3100
0021
0000
1000
0000
,
1100
0000
1001
0030
0201
0000
1000
0000
0011
0000
0001
0300
0012
0000
1000
0100
,
2103
0010
0001
3000
0120
0000
1001
0030
1200
0000
0001
0300
0012
0010
1000
0000
,
1000
0100
0010
0103
2100
0000
0001
3000
0120
0000
1000
1030
0201
0000
1000
0010
,
0001
0010
1000
0301
2010
0000
0100
0000
0101
0000
0100
3100
0021
0000
1000
0100
,
0001
0100
1000
0030
1002
0100
0010
1000
0010
0100
0100
1003
0210
0000
1010
0300
,
0012
0000
1010
0003
2100
0000
0001
0000
0011
0000
0000
3000
0012
0100
1000
0010
,
1100
0010
0100
1000
0110
1000
0100
1000
0110
1000
0010
1000
1010
1000
0110
1000
,
0110
0010
1100
0010
1100
0100
1010
0010
1100
0010
1100
1003
0110
0100
0010
1000
,
0101
0001
0010
1000
0011
0100
0010
1000
1001
0100
0001
0010
1100
0001
0100
0010
,
1100
0001
0100
1000
0011
0100
0010
0000
1001
0000
0001
0000
1100
0010
0100
0010
,
1100
0010
0001
0100
0011
0100
0010
1000
0011
0100
1000
0010
0101
0001
0100
0010
,
1100
0010
1000
0010
1100
0001
0010
0001
0110
0100
0010
0100
0011
0100
0010
1000
,
0011
0100
1000
0010
1100
0010
0100
0001
1100
0010
0001
0100
1001
0000
0001
0000
,
1100
0000
0001
0000
0110
0000
0100
0000
0010
0000
0110
0000
1011
0100
0010
1000
,
0011
0100
1000
0010
1101
0010
0100
0001
1100
0010
0001
0100
1011
0100
1000
0100
,
0011
0100
0010
0100
1010
0001
0010
0001
1100
0010
0001
0100
1011
0100
0010
1000
,
0101
0010
1000
0100
1110
0010
0100
0001
1100
0010
0001
0100
1011
0100
1000
0100
,
0011
0100
1000
0010
1100
0010
0001
0100
1000
0000
1100
0000
0012
0100
1000
0010
,
0010
0100
0010
1003
2100
0010
0001
0100
0100
0010
0100
3001
0120
0000
0001
0030
,
1102
0000
1000
0003
0210
0000
1000
0300
2011
0000
0100
3000
0012
0100
1000
0010
,
0010
0100
0010
1003
2100
0010
0001
0010
0100
0010
0100
3001
0210
0000
1000
0000
,
0011
0000
0000
0000
1000
0000
0000
0000
0012
0000
0000
0000
1000
0000
0000
0000
1010
0000
0000
0000
1000
0000
0003
0300
2020
0000
0000
0000
0000
0000
3130
0000
,
0101
0000
1010
0000
0220
0001
1000
0331
1010
0000
0101
0000
0202
0000
1000
0303
,
1010
0000
0101
0000
0011
0000
1100
0000
1001
0000
0110
0000
2002
0000
0000
3103
,
0110
0000
1001
0000
2200
0001
0010
3301
0110
0000
0100
0010
1002
0000
0010
0003
,
1100
0000
0011
0000
2001
0010
0001
3010
0102
0010
0100
1003
1200
0010
0001
1300
,
0012
0100
0010
1003
0120
1000
0100
0031
2100
0010
0001
3100
1010
0000
0101
0000
,
1010
0000
0101
0000
0012
0100
1000
0013
1100
0010
1100
0001
2100
0010
0001
3100
,
0012
0100
0010
1003
0110
0010
1100
0001
1100
0010
1001
0010
1200
0010
0001
1000
,
0001
0310
1001
0100
0021
0100
1000
0001
1000
1000
0000
0030
1002
0000
0000
0000
,
0000
0000
0000
0000
0000
1000
0100
0010
0110
1000
0103
1000
0021
0001
1000
0030
,
1200
0000
1001
0300
0012
0000
0100
0003
2100
0000
0010
3001
0120
0000
0001
0000
,
0001
0000
1001
0030
2100
0000
0010
0000
0010
0000
0010
3100
0012
1000
0010
0100
,
1000
0100
0010
1003
0210
1000
0010
0301
1020
0100
0001
0130
2100
0000
0001
3010
,
0012
0100
1000
0103
1020
0000
0001
0030
1200
0000
0001
0301
2100
0100
0001
3000
,
0012
0000
1010
0003
1020
0000
0001
0030
1200
0000
0001
0310
1002
0000
0100
0013
,
2100
0010
0001
3010
0201
0000
0010
0300
0021
0000
1000
0130
1002
0000
0010
0010
,
1000
0000
0010
0003
0120
1000
0001
1030
0102
0100
0010
0103
2001
0000
0100
3000
,
0012
0000
0100
0013
0220
0000
1000
0000
1001
0000
1000
0330
2011
0000
0100
0000
,
0101
0000
0100
0000
0011
0000
0100
0000
0001
0000
0101
0000
0011
0000
0100
3000
,
1001
0000
0001
0000
0010
0000
0100
0000
0001
0000
0100
0000
0010
1000
0100
0000
,
0010
0100
0000
0000
0000
0000
0000
0000
;
